武聆音雄论坛

 找回密码
 加入武聆
返回列表

[大陆武侠音乐] 《吕布与貂蝉》主题曲-蝶舞天涯,无损

[复制链接]
xebjz 发表于 2019-11-16 00:59:17 |评论: 2
本帖最后由 xebjz 于 2019-11-16 00:55 编辑

自己从dvd的源盘里提取的,
Input File     : '\胡伟立\蝶舞天涯.WAV'
Channels       : 2
Sample Rate    : 48000
Precision      : 16-bit
Duration       : 00:03:03.78 = 8821248 samples ~ 13783.2 CDDA sectors
File Size      : 35.3M
Bit Rate       : 1.54M
Sample Encoding: 16-bit Signed Integer PCM
Size: 35285070 Hash: 147926393EB7FDA22686AF5F4786398F Accuracy: -m0
  Conclusion: MPEG 95%
  Signature: B6F098A912E6EBC954DE8B972923BF33516380B0
也看了频谱

虽然20k以上不足,但看了各个音段柱都不缺,上下也没有裁剪的痕迹,应该是真无损级别的了。
估计是网上唯一的了

https://pan.baidu.com/s/1blTJQW4cNiysi6QTWUt71A

蝶舞天涯.wav.png

楼主:xebjz

1

主题

17

帖子

14

金币

初入武聆

Rank: 1

积分 24

ab5202001 发表于 2019-11-16 19:47:49
谢谢分享!!....
 楼主| xebjz 发表于 2019-11-16 20:29:21
老铁,多点赞啊,双击666啊。
返回列表

手机版|Archiver|QQ咨询|武聆音雄团队 ( 鄂ICP备15001604号-2 )

GMT+8, 2019-12-6 03:59

Powered by Discuz!

© 2001-2017 Comsenz Inc.

快速回复 返回顶部 返回列表